Loving Vincent 2017 1080p BRRip X264 AAC 5 1 ESub-Hon3y

Torrent Details

Loving Vincent 2017 1080p BRRip x264 AAC 5 1 ESub-Hon3y

NAME
Loving Vincent 2017 1080p BRRip x264 AAC 5 1 ESub-Hon3y.torrent
CATEGORY
Movies
INFOHASH
9ccb2ed5ebef8919d92de4a7ebb833343756ca4f
SIZE
1.9 GB in 3 files
ADDED
Uploaded on 06-01-2018 by our crawler pet called "Spidey".
SWARM
0 seeders & 0 peers
RATING
No votes yet.

Please login to vote for this torrent.


Description




http://www.imdb.com/title/tt3262342

Loving Vincent 2017 1080p BRRip x264 AAC 5.1 ESub-Hon3y

Source : GECKOS
Format : Matroska
Format version : Version 4 / Version 2
File size : 1.87 GiB
Duration : 1 h 34 min
Overall bit rate : 2 820 kb/s
Movie name : Loving Vincent 2017 - Hon3y


Video
ID : 1
Format : AVC
Format/Info : Advanced Video Codec
Format profile : [email protected]
Format settings, CABAC : Yes
Format settings, RefFrames : 5 frames
Codec ID : V_MPEG4/ISO/AVC
Duration : 1 h 34 min
Bit rate : 2 500 kb/s
Width : 1 480 pixels
Height : 1 080 pixels
Display aspect ratio : 1.370
Frame rate mode : Constant
Frame rate : 23.976 (24000/1001) FPS


Audio
ID : 2
Format : AAC
Format/Info : Advanced Audio Codec
Format profile : LC
Codec ID : A_AAC
Duration : 1 h 34 min
Bit rate : 318 kb/s
Channel(s) : 6 channels
Channel positions : Front: L C R, Side: L R, LFE
Sampling rate : 48.0 kHz
Frame rate : 46.875 FPS (1024 SPF)
Compression mode : Lossy
Delay relative to video : -21 ms
Stream size : 216 MiB (11%)
Title : Surround
Language : English
Default : Yes
Forced : No

Text
ID : 3
Format : UTF-8
Codec ID : S_TEXT/UTF8
Codec ID/Info : UTF-8 Plain Text
Duration : 1 h 32 min
Bit rate : 67 b/s
Count of elements : 1481
Stream size : 45.9 KiB (0%)
Language : English
Default : Yes
Forced : No

Menu
00:00:00.000 : :00:00:00.000
00:10:28.128 : :00:10:28.002
00:22:59.086 : :00:22:59.044
00:38:05.533 : :00:38:05.408
00:48:47.967 : :00:48:47.967
01:03:17.043 : :01:03:16.960
01:14:26.921 : :01:14:26.921
01:28:26.885 : :01:28:26.885

http://hon3yhd.to

For more Exclusive & Quality Stuff Visit :: Hon3yHD


Discussion

Comments 0

Post Your Comment

Files in this torrent

FILENAMESIZE
For more Exclusive & Quality Stuff Visit www.hon3yhd.to.txt163 B
Loving Vincent 2017 1080p BRRip x264 AAC 5.1 ESub-Hon3y.mkv1.9 GB
www.hon3yhd.to.txt163 B

Alternative Torrents for ''.

There are no alternative torrents found.